<?xml version="1.0" standalone="no"?>
<!DOCTYPE svg PUBLIC "-//W3C//DTD SVG 1.1//EN" "http://www.w3.org/Graphics/SVG/1.1/DTD/svg11.dtd" >
<svg>
<metadata>
Created by FontForge 20120731 at Tue Jun  4 18:05:37 2019
 By www-data
HTF Gotham Copr. 2000 The Hoefler Type Foundry, Inc. Info: www.typography.com
</metadata>
<defs>
<font id="Gotham-Light" horiz-adv-x="500" >
  <font-face 
    font-family="Gotham Light"
    font-weight="500"
    font-stretch="normal"
    units-per-em="1000"
    panose-1="0 0 0 0 0 0 0 0 0 0"
    ascent="800"
    descent="-200"
    x-height="510"
    cap-height="700"
    bbox="-67 -164.273 1145 898"
    underline-thickness="20"
    underline-position="-123"
    unicode-range="U+0020-FB02"
  />
<missing-glyph 
 />
    <glyph glyph-name=".notdef" 
 />
    <glyph glyph-name=".null" horiz-adv-x="0" 
 />
    <glyph glyph-name="nonmarkingreturn" horiz-adv-x="333" 
 />
    <glyph glyph-name="space" unicode=" " horiz-adv-x="300" 
 />
    <glyph glyph-name="exclam" unicode="!" horiz-adv-x="252" 
d="M97 700h58v-70l-15 -447h-28l-15 447v70zM159 0h-66v85h66v-85z" />
    <glyph glyph-name="quotedbl" unicode="&#x22;" horiz-adv-x="410" 
d="M248 446l35 254h65v-5l-71 -249h-29zM68 446l35 254h65v-5l-71 -249h-29z" />
    <glyph glyph-name="numbersign" unicode="#" horiz-adv-x="700" 
d="M650 470h-128l-41 -236h129v-47h-137l-32 -187h-48l32 187h-207l-32 -187h-48l32 187h-121v47h129l41 236h-130v47h138l31 183h48l-31 -183h207l31 183h48l-31 -183h120v-47zM474 470h-207l-41 -236h207z" />
    <glyph glyph-name="dollar" unicode="$" horiz-adv-x="632" 
d="M559 185q0 -79 -59.5 -130t-154.5 -55v-98h-48v99q-129 11 -237 107l33 39q97 -91 206 -100v284q-112 25 -162 69t-50 119q0 76 59.5 127.5t150.5 53.5v58h48v-60q102 -8 193 -82l-33 -39q-74 65 -162 76v-281q114 -24 165 -68.5t51 -118.5zM299 382v273
q-72 -1 -116.5 -39t-44.5 -93q0 -53 34 -85.5t127 -55.5zM508 181q0 54 -35 86t-130 54v-276q74 2 119.5 40t45.5 96z" />
    <glyph glyph-name="percent" unicode="%" horiz-adv-x="824" 
d="M363 530q0 -74 -43.5 -127t-111.5 -53q-67 0 -110 52.5t-43 125.5q0 74 43.5 127t111.5 53q67 0 110 -52.5t43 -125.5zM696 700l-514 -700h-54l514 700h54zM769 172q0 -74 -43.5 -127t-111.5 -53q-67 0 -110 52.5t-43 125.5q0 74 43.5 127t111.5 53q67 0 110 -52.5
t43 -125.5zM311 528q0 59 -30 98t-73 39q-44 0 -72.5 -38.5t-28.5 -96.5q0 -59 30 -98t73 -39q44 0 72.5 38.5t28.5 96.5zM717 170q0 59 -30 98t-73 39q-44 0 -72.5 -38.5t-28.5 -96.5q0 -59 30 -98t73 -39q44 0 72.5 38.5t28.5 96.5z" />
    <glyph glyph-name="ampersand" unicode="&#x26;" horiz-adv-x="696" 
d="M663 20l-41 -34l-121 125q-104 -121 -237 -121q-93 0 -154 54.5t-61 140.5q0 139 181 206q-42 46 -60 82t-18 79q0 69 49.5 114.5t125.5 45.5q68 0 114.5 -44.5t46.5 -108.5q0 -123 -172 -182l184 -189q48 67 91 170l47 -19q-51 -115 -104 -186zM436 557q0 47 -32 79
t-79 32q-53 0 -87 -32.5t-34 -81.5q0 -34 17 -64.5t64 -80.5q151 48 151 148zM468 145l-207 214q-80 -27 -120 -72.5t-40 -99.5q0 -65 46.5 -108.5t117.5 -43.5q109 0 203 110z" />
    <glyph glyph-name="quotesingle" unicode="'" horiz-adv-x="230" 
d="M68 446l35 254h65v-5l-71 -249h-29z" />
    <glyph glyph-name="parenleft" unicode="(" horiz-adv-x="430" 
d="M369 682q-246 -151 -246 -395t246 -395l-21 -33q-134 76 -205.5 185t-71.5 243t71.5 243t205.5 185z" />
    <glyph glyph-name="parenright" unicode=")" horiz-adv-x="430" 
d="M61 682l21 33q134 -76 205.5 -185t71.5 -243t-71.5 -243t-205.5 -185l-21 33q246 151 246 395t-246 395z" />
    <glyph glyph-name="asterisk" unicode="*" horiz-adv-x="430" 
d="M355 498l-22 -37l-106 72l9 -127h-42l9 127l-106 -72l-22 37l118 56l-118 56l22 37l106 -72l-9 127h42l-9 -127l106 72l22 -37l-118 -56z" />
    <glyph glyph-name="plus" unicode="+" horiz-adv-x="640" 
d="M295 376v215h50v-215h217v-48h-217v-215h-50v215h-217v48h217z" />
    <glyph glyph-name="comma" unicode="," horiz-adv-x="230" 
d="M53 -82q33 17 45.5 35.5t10.5 46.5h-27v85h66v-74q0 -47 -19 -74t-64 -44z" />
    <glyph glyph-name="hyphen" unicode="-" horiz-adv-x="408" 
d="M338 269h-268v56h268v-56z" />
    <glyph glyph-name="period" unicode="." horiz-adv-x="230" 
d="M148 0h-66v85h66v-85z" />
    <glyph glyph-name="slash" unicode="/" 
d="M454 798h49l-472 -926h-49z" />
    <glyph glyph-name="zero" unicode="0" horiz-adv-x="710" 
d="M645 351q0 -98 -35 -180t-102.5 -132.5t-153.5 -50.5t-153 50t-101.5 131.5t-34.5 179.5t35 180t102.5 132.5t153.5 50.5t153 -50t101.5 -131.5t34.5 -179.5zM591 349q0 128 -66 222t-171 94t-170 -93t-65 -221t66 -222t171 -94t170 93t65 221z" />
    <glyph glyph-name="one" unicode="1" horiz-adv-x="335" 
d="M30 646l160 59h40v-705h-51v651l-135 -46z" />
    <glyph glyph-name="two" unicode="2" horiz-adv-x="590" 
d="M306 664q-64 0 -111.5 -32t-93.5 -98l-39 26q50 76 106 113t143 37q89 0 148.5 -55t59.5 -138q0 -69 -38.5 -126.5t-136.5 -146.5l-214 -194h396v-50h-478v39l261 236q87 79 121 131.5t34 107.5q0 66 -46.5 108t-111.5 42z" />
    <glyph glyph-name="three" unicode="3" horiz-adv-x="610" 
d="M457 651h-367v49h438v-37l-237 -271q108 -6 178 -56.5t70 -142.5q0 -90 -67 -147.5t-161 -57.5q-160 0 -257 126l40 33q88 -112 218 -112q72 0 122.5 44t50.5 112q0 72 -60.5 112.5t-157.5 40.5h-38l-13 29z" />
    <glyph glyph-name="four" unicode="4" horiz-adv-x="664" 
d="M448 705h47v-489h114v-45h-114v-171h-50v171h-379l-18 39zM445 216v414l-334 -414h334z" />
    <glyph glyph-name="five" unicode="5" horiz-adv-x="605" 
d="M102 361l20 339h393v-50h-347l-17 -262q78 38 155 38q103 0 171.5 -59.5t68.5 -152.5q0 -99 -69 -162.5t-175 -63.5q-68 0 -132 31.5t-113 81.5l37 37q103 -103 210 -103q82 0 135 51t53 126q0 74 -53.5 120.5t-138.5 46.5q-77 0 -158 -44z" />
    <glyph glyph-name="six" unicode="6" horiz-adv-x="642" 
d="M551 631l-33 -40q-83 74 -173 74q-106 0 -169.5 -101t-59.5 -262q76 130 219 130q99 0 170 -60.5t71 -152.5q0 -100 -70.5 -165.5t-174.5 -65.5q-108 0 -178 70q-46 46 -67.5 107.5t-21.5 166.5q0 163 78.5 271.5t206.5 108.5q103 0 202 -81zM522 217q0 73 -53.5 121
t-136.5 48t-139 -53t-56 -121q0 -76 56.5 -126.5t141.5 -50.5q83 0 135 52.5t52 129.5z" />
    <glyph glyph-name="seven" unicode="7" horiz-adv-x="587" 
d="M68 650v50h464v-38l-319 -662h-57l318 650h-406z" />
    <glyph glyph-name="eight" unicode="8" horiz-adv-x="630" 
d="M575 188q0 -87 -74.5 -142.5t-185.5 -55.5t-185.5 55.5t-74.5 142.5q0 60 43 105.5t112 68.5q-131 53 -131 164q0 80 71 132t165 52t165 -52t71 -132q0 -111 -131 -164q69 -23 112 -68.5t43 -105.5zM497 526q0 59 -52.5 98t-129.5 39t-129.5 -39t-52.5 -98
q0 -64 53 -104.5t129 -40.5t129 40.5t53 104.5zM521 186q0 65 -59.5 108t-146.5 43t-146.5 -43t-59.5 -108q0 -62 56 -105.5t150 -43.5t150 43.5t56 105.5z" />
    <glyph glyph-name="nine" unicode="9" horiz-adv-x="642" 
d="M578 367q0 -165 -81 -272t-204 -107q-108 0 -211 87l33 40q89 -80 179 -80q106 0 172 102t60 259q-75 -135 -218 -135q-105 0 -173.5 61.5t-68.5 153.5q0 99 69 167.5t177 68.5q107 0 178 -71q88 -88 88 -274zM505 486q0 76 -56.5 127.5t-142.5 51.5q-83 0 -134.5 -55
t-51.5 -132q0 -74 53.5 -122.5t136.5 -48.5q86 0 140.5 54.5t54.5 124.5z" />
    <glyph glyph-name="colon" unicode=":" horiz-adv-x="240" 
d="M153 425h-66v85h66v-85zM153 0h-66v85h66v-85z" />
    <glyph glyph-name="semicolon" unicode=";" horiz-adv-x="240" 
d="M153 425h-66v85h66v-85zM58 -82q33 17 45.5 35.5t10.5 46.5h-27v85h66v-74q0 -47 -19 -74t-64 -44z" />
    <glyph glyph-name="less" unicode="&#x3c;" horiz-adv-x="640" 
d="M73 372l464 241v-54l-403 -206l403 -208v-54l-464 241v40z" />
    <glyph glyph-name="equal" unicode="=" horiz-adv-x="640" 
d="M93 490h454v-51h-454v51zM93 265h454v-51h-454v51z" />
    <glyph glyph-name="greater" unicode="&#x3e;" horiz-adv-x="640" 
d="M567 332l-464 -241v54l403 206l-403 208v54l464 -241v-40z" />
    <glyph glyph-name="question" unicode="?" horiz-adv-x="534" 
d="M221 350q98 2 153 45t55 116q0 64 -45.5 108t-120.5 44q-109 0 -193 -103l-36 30q46 58 101 88.5t130 30.5q97 0 157 -56.5t60 -139.5q0 -89 -59.5 -141.5t-152.5 -63.5l-9 -125h-32l-13 162zM278 0h-66v85h66v-85z" />
    <glyph glyph-name="at" unicode="@" horiz-adv-x="980" 
d="M927 316q0 -119 -55 -181t-127 -62q-52 0 -87.5 25t-48.5 68q-75 -93 -171 -93q-74 0 -125.5 50t-51.5 128q0 103 72.5 176t160.5 73q102 0 149 -89l14 75l48 -6l-37 -211q-9 -53 -9 -72q0 -43 23.5 -65.5t66.5 -22.5q58 0 101 53t43 154q0 91 -51.5 174.5t-145.5 136.5
t-205 53q-172 0 -288 -118.5t-116 -287.5q0 -170 116.5 -287t295.5 -117q134 0 250 68l15 -25q-123 -75 -265 -75q-190 0 -318 127.5t-128 308.5q0 180 127.5 309t310.5 129q182 0 309 -118t127 -278zM626 313q0 59 -37.5 99t-94.5 40q-70 0 -125.5 -57.5t-55.5 -139.5
q0 -63 36.5 -99t96.5 -36q70 0 125 59.5t55 133.5z" />
    <glyph glyph-name="A" unicode="A" horiz-adv-x="790" 
d="M746 0h-57l-89 196h-413l-89 -196h-54l326 705h50zM578 243l-184 405l-185 -405h369z" />
    <glyph glyph-name="B" unicode="B" horiz-adv-x="722" 
d="M659 191q0 -87 -68.5 -139t-182.5 -52h-304v700h289q102 0 164.5 -47t62.5 -125v-2q0 -118 -119 -166q158 -41 158 -167v-2zM567 521v2q0 59 -46 94t-129 35h-236v-275h231q81 0 130.5 38t49.5 106zM606 191v2q0 65 -55 100.5t-158 35.5h-237v-281h254q90 0 143 38.5
t53 104.5z" />
    <glyph glyph-name="C" unicode="C" horiz-adv-x="738" 
d="M699 110q-61 -60 -126 -91t-152 -31q-149 0 -248.5 104t-99.5 256v2q0 150 100 256t250 106q87 0 149.5 -28.5t122.5 -83.5l-37 -38q-106 103 -236 103q-126 0 -210.5 -90.5t-84.5 -222.5v-2q0 -133 85.5 -224t210.5 -91q73 0 129 27t112 82z" />
    <glyph glyph-name="D" unicode="D" horiz-adv-x="782" 
d="M709 350q0 -150 -104.5 -250t-267.5 -100h-233v700h233q163 0 267.5 -99.5t104.5 -248.5v-2zM655 348v2q0 128 -87.5 215t-230.5 87h-181v-604h181q143 0 230.5 86t87.5 214z" />
    <glyph glyph-name="E" unicode="E" horiz-adv-x="670" 
d="M607 0h-503v700h498v-48h-446v-275h401v-48h-401v-281h451v-48z" />
    <glyph glyph-name="F" unicode="F" horiz-adv-x="656" 
d="M597 652h-441v-287h396v-48h-396v-317h-52v700h493v-48z" />
    <glyph glyph-name="G" unicode="G" horiz-adv-x="784" 
d="M700 93q-52 -46 -123.5 -75.5t-151.5 -29.5q-161 0 -256.5 103.5t-95.5 256.5v2q0 147 97 254.5t249 107.5q81 0 140.5 -23t115.5 -69l-34 -39q-96 84 -225 84q-125 0 -207 -92t-82 -221v-2q0 -139 81 -227.5t219 -88.5q63 0 122.5 22.5t100.5 57.5v201h-234v48h284v-270
z" />
    <glyph glyph-name="H" unicode="H" horiz-adv-x="760" 
d="M656 0h-52v328h-448v-328h-52v700h52v-324h448v324h52v-700z" />
    <glyph glyph-name="I" unicode="I" horiz-adv-x="274" 
d="M163 0h-52v700h52v-700z" />
    <glyph glyph-name="J" unicode="J" horiz-adv-x="549" 
d="M456 228q0 -114 -58 -176t-149 -62q-139 0 -212 131l43 27q34 -57 73.5 -84t98.5 -27q67 0 109.5 49t42.5 138v476h52v-472z" />
    <glyph glyph-name="K" unicode="K" horiz-adv-x="715" 
d="M686 0h-68l-288 354l-174 -176v-178h-52v700h52v-460l446 460h71l-306 -309z" />
    <glyph glyph-name="L" unicode="L" horiz-adv-x="619" 
d="M567 0h-463v700h52v-652h411v-48z" />
    <glyph glyph-name="M" unicode="M" horiz-adv-x="868" 
d="M764 0h-52v608l-277 -403h-4l-277 403v-608h-50v700h49l281 -414l281 414h49v-700z" />
    <glyph glyph-name="N" unicode="N" horiz-adv-x="790" 
d="M686 0h-39l-493 622v-622h-50v700h49l483 -609v609h50v-700z" />
    <glyph glyph-name="O" unicode="O" horiz-adv-x="850" 
d="M777 350q0 -148 -99 -255t-254 -107t-253 106t-98 254v2q0 148 99 255t254 107t253 -106t98 -254q1 -1 0 -2zM723 348v2q0 131 -85.5 223t-213.5 92t-212.5 -91t-84.5 -222v-2q0 -131 85.5 -223t213.5 -92t212.5 91t84.5 222z" />
    <glyph glyph-name="P" unicode="P" horiz-adv-x="668" 
d="M618 484q0 -106 -78.5 -164.5t-194.5 -58.5h-189v-261h-52v700h254q117 0 188.5 -57t71.5 -157v-2zM566 481v2q0 81 -57.5 125t-154.5 44h-198v-343h192q98 0 158 47t60 125z" />
    <glyph glyph-name="Q" unicode="Q" horiz-adv-x="850" 
d="M785 19l-37 -40l-98 89q-94 -80 -226 -80q-155 0 -253 106t-98 254v2q0 148 99 255t254 107t253 -106t98 -254q1 -1 0 -2q0 -144 -92 -247zM723 348v2q0 131 -85.5 223t-213.5 92t-212.5 -91t-84.5 -222v-2q0 -131 85.5 -223t213.5 -92q107 0 186 66l-136 116l37 41
l134 -122q76 89 76 212z" />
    <glyph glyph-name="R" unicode="R" horiz-adv-x="723" 
d="M674 0h-66l-223 290h-229v-290h-52v700h294q113 0 181.5 -55.5t68.5 -143.5v-2q0 -85 -56 -136t-149 -64zM596 497v2q0 71 -53 112t-148 41h-239v-315h236q90 0 147 43t57 117z" />
    <glyph glyph-name="S" unicode="S" horiz-adv-x="640" 
d="M573 181q0 -84 -65 -137.5t-167 -53.5q-157 0 -282 112l34 39q59 -55 117 -79.5t134 -24.5q78 0 127.5 39.5t49.5 99.5v2q0 58 -41.5 92t-156.5 57q-126 25 -181 71t-55 126v2q0 78 64 131t161 53q74 0 129.5 -20.5t110.5 -64.5l-33 -41q-91 79 -209 79q-76 0 -123.5 -38
t-47.5 -94v-2q0 -59 42.5 -94t161.5 -59q121 -25 175.5 -70.5t54.5 -122.5v-2z" />
    <glyph glyph-name="T" unicode="T" horiz-adv-x="648" 
d="M594 652h-244v-652h-52v652h-244v48h540v-48z" />
    <glyph glyph-name="U" unicode="U" horiz-adv-x="760" 
d="M667 297q0 -147 -78 -227.5t-209 -80.5q-129 0 -208 79t-79 223v409h52v-404q0 -123 63 -191.5t174 -68.5q109 0 171 65.5t62 189.5v409h52v-403z" />
    <glyph glyph-name="V" unicode="V" horiz-adv-x="750" 
d="M706 700l-308 -705h-46l-308 705h58l274 -644l275 644h55z" />
    <glyph glyph-name="W" unicode="W" horiz-adv-x="1102" 
d="M1052 700l-254 -705h-42l-205 608l-205 -608h-42l-254 705h58l220 -623l205 625h40l205 -625l220 623h54z" />
    <glyph glyph-name="X" unicode="X" horiz-adv-x="722" 
d="M671 0h-62l-249 323l-248 -323h-61l279 357l-269 343h62l239 -308l238 308h61l-268 -342z" />
    <glyph glyph-name="Y" unicode="Y" horiz-adv-x="716" 
d="M684 700l-300 -422v-278h-52v277l-300 423h65l262 -376l263 376h62z" />
    <glyph glyph-name="Z" unicode="Z" horiz-adv-x="688" 
d="M621 0h-553v29l479 624h-462v47h536v-29l-479 -624h479v-47z" />
    <glyph glyph-name="bracketleft" unicode="[" horiz-adv-x="430" 
d="M371 700v-38h-227v-754h227v-38h-273v830h273z" />
    <glyph glyph-name="backslash" unicode="\" 
d="M46 798l472 -926h-49l-472 926h49z" />
    <glyph glyph-name="bracketright" unicode="]" horiz-adv-x="430" 
d="M59 700h273v-830h-273v38h227v754h-227v38z" />
    <glyph glyph-name="asciicircum" unicode="^" 
d="M249 660l-128 -167h-51l158 210h44l158 -210h-53z" />
    <glyph glyph-name="underscore" unicode="_" horiz-adv-x="600" 
d="M-2 -116h604v-44h-604v44z" />
    <glyph glyph-name="grave" unicode="`" 
d="M264 595l-107 103l61 30l88 -133h-42z" />
    <glyph glyph-name="a" unicode="a" horiz-adv-x="574" 
d="M491 0h-48v85q-69 -97 -195 -97q-78 0 -137.5 42.5t-59.5 117.5v2q0 78 61 122t162 44q86 0 169 -22v22q0 76 -44 116t-124 40t-160 -41l-18 43q95 44 181 44q100 0 156.5 -51.5t56.5 -148.5v-318zM444 191v58q-90 23 -173 23q-80 0 -124 -32.5t-44 -86.5v-2
q0 -53 43.5 -85t104.5 -32q80 0 136.5 44.5t56.5 112.5z" />
    <glyph glyph-name="b" unicode="b" horiz-adv-x="660" 
d="M600 255q0 -119 -75 -193t-173 -74q-130 0 -210 122v-110h-49v730h49v-334q83 126 210 126q98 0 173 -73t75 -192v-2zM547 253v2q0 98 -58.5 159t-141.5 61t-145.5 -62.5t-62.5 -156.5v-2q0 -95 62.5 -157t145.5 -62q86 0 143 59t57 159z" />
    <glyph glyph-name="c" unicode="c" horiz-adv-x="571" 
d="M526 89q-89 -101 -208 -101q-109 0 -184.5 78.5t-75.5 186.5v2q0 108 76 187.5t184 79.5q114 0 204 -94l-35 -36q-82 84 -170 84q-87 0 -146.5 -63.5t-59.5 -155.5v-2q0 -92 61 -156.5t149 -64.5q95 0 171 85z" />
    <glyph glyph-name="d" unicode="d" horiz-adv-x="660" 
d="M567 0h-49v114q-83 -126 -210 -126q-98 0 -173 73t-75 192v2q0 119 75 193t173 74q130 0 210 -122v330h49v-730zM521 254v2q0 95 -62.5 157t-145.5 62q-86 0 -143 -59t-57 -159v-2q0 -98 58.5 -159t141.5 -61t145.5 62.5t62.5 156.5z" />
    <glyph glyph-name="e" unicode="e" horiz-adv-x="584" 
d="M110 235q7 -92 64.5 -146.5t135.5 -54.5q100 0 175 80l34 -30q-89 -96 -211 -96q-103 0 -176.5 75t-73.5 191v2q0 112 69.5 189t172.5 77q105 0 169.5 -76t64.5 -191v-2q0 -10 -1 -18h-423zM110 279h371q-6 84 -53 141t-130 57q-75 0 -128 -56.5t-60 -141.5z" />
    <glyph glyph-name="f" unicode="f" horiz-adv-x="362" 
d="M351 675q-42 13 -76 13q-103 0 -103 -129v-49h178v-45h-178v-465h-49v465h-74v45h74v50q0 82 40 127.5t112 45.5q41 0 76 -12v-46z" />
    <glyph glyph-name="g" unicode="g" horiz-adv-x="660" 
d="M567 79q0 -114 -69 -177.5t-181 -63.5q-129 0 -234 78l29 40q93 -72 206 -72q91 0 145.5 51t54.5 147v74q-82 -118 -213 -118q-97 0 -171 67.5t-74 172.5v2q0 106 74 174t171 68q133 0 213 -114v102h49v-431zM521 279v2q0 85 -63.5 139.5t-147.5 54.5q-83 0 -140 -53
t-57 -140v-2q0 -84 58 -139.5t139 -55.5q83 0 147 55t64 139z" />
    <glyph glyph-name="h" unicode="h" horiz-adv-x="613" 
d="M530 0h-49v303q0 80 -43 127t-119 47t-126.5 -51.5t-50.5 -130.5v-295h-49v730h49v-315q61 107 184 107q95 0 149.5 -58.5t54.5 -151.5v-312z" />
    <glyph glyph-name="i" unicode="i" horiz-adv-x="249" 
d="M155 643h-61v67h61v-67zM149 0h-49v510h49v-510z" />
    <glyph glyph-name="j" unicode="j" horiz-adv-x="249" 
d="M155 643h-61v67h61v-67zM149 -45q0 -58 -29 -88t-80 -30q-21 0 -41 4v43q18 -3 40 -3q28 0 44.5 18t16.5 53v558h49v-555z" />
    <glyph glyph-name="k" unicode="k" horiz-adv-x="560" 
d="M530 0h-62l-202 249l-124 -125v-124h-49v730h49v-547l316 327h65l-223 -226z" />
    <glyph glyph-name="l" unicode="l" horiz-adv-x="249" 
d="M149 0h-49v730h49v-730z" />
    <glyph glyph-name="m" unicode="m" horiz-adv-x="951" 
d="M864 0h-49v303q0 82 -40 128t-111 46q-67 0 -114 -49t-47 -131v-297h-49v306q0 79 -40.5 125t-108.5 46t-115.5 -53t-47.5 -130v-294h-49v510h49v-91q30 48 69 75.5t101 27.5q120 0 172 -110q64 110 184 110q90 0 143 -58t53 -155v-309z" />
    <glyph glyph-name="n" unicode="n" horiz-adv-x="613" 
d="M530 0h-49v303q0 80 -43 127t-119 47t-126.5 -51.5t-50.5 -130.5v-295h-49v510h49v-95q61 107 184 107q95 0 149.5 -58.5t54.5 -151.5v-312z" />
    <glyph glyph-name="o" unicode="o" horiz-adv-x="640" 
d="M582 255q0 -109 -75.5 -188t-187.5 -79t-186.5 78t-74.5 187v2q0 109 75.5 188t187.5 79t186.5 -78t74.5 -187v-2zM529 253v2q0 92 -61 156.5t-149 64.5q-90 0 -149 -64t-59 -155v-2q0 -92 61 -156.5t149 -64.5q90 0 149 64t59 155z" />
    <glyph glyph-name="p" unicode="p" horiz-adv-x="660" 
d="M600 255q0 -119 -75 -193t-173 -74q-130 0 -210 122v-270h-49v670h49v-114q83 126 210 126q98 0 173 -73t75 -192v-2zM547 253v2q0 98 -58.5 159t-141.5 61t-145.5 -62.5t-62.5 -156.5v-2q0 -95 62.5 -157t145.5 -62q86 0 143 59t57 159z" />
    <glyph glyph-name="q" unicode="q" horiz-adv-x="660" 
d="M567 -160h-49v274q-83 -126 -210 -126q-98 0 -173 73t-75 192v2q0 119 75 193t173 74q130 0 210 -122v110h49v-670zM521 254v2q0 95 -62.5 157t-145.5 62q-86 0 -143 -59t-57 -159v-2q0 -98 58.5 -159t141.5 -61t145.5 62.5t62.5 156.5z" />
    <glyph glyph-name="r" unicode="r" horiz-adv-x="400" 
d="M368 464h-5q-93 0 -157 -68t-64 -187v-209h-49v510h49v-145q31 70 91.5 113t134.5 40v-54z" />
    <glyph glyph-name="s" unicode="s" horiz-adv-x="497" 
d="M434 139q0 -67 -50.5 -108t-125.5 -41q-55 0 -111.5 20.5t-97.5 53.5l29 39q87 -67 183 -67q53 0 88 27t35 70v2q0 17 -7.5 31.5t-19 24.5t-31 19t-36 14.5t-41.5 12.5q-35 10 -51 15t-45 18t-42.5 25.5t-25 34t-11.5 47.5v2q0 62 47 101.5t121 39.5q97 0 181 -56
l-26 -41q-77 51 -157 51q-52 0 -84 -25t-32 -64v-2q0 -16 8.5 -30t20 -23t33 -18.5t37 -14.5t43.5 -13q38 -11 62 -20t51.5 -25.5t41 -41t13.5 -56.5v-2z" />
    <glyph glyph-name="t" unicode="t" horiz-adv-x="400" 
d="M346 9q-39 -18 -83 -18q-63 0 -103 35.5t-40 104.5v334h-74v45h74v163h49v-163h179v-45h-179v-329q0 -99 102 -99q35 0 75 18v-46z" />
    <glyph glyph-name="u" unicode="u" horiz-adv-x="613" 
d="M520 0h-49v95q-61 -107 -184 -107q-95 0 -149.5 58.5t-54.5 151.5v312h49v-303q0 -80 43 -127t119 -47t126.5 51.5t50.5 130.5v295h49v-510z" />
    <glyph glyph-name="v" unicode="v" horiz-adv-x="582" 
d="M541 510l-229 -514h-42l-229 514h57l193 -455l195 455h55z" />
    <glyph glyph-name="w" unicode="w" horiz-adv-x="861" 
d="M812 510l-187 -514h-42l-152 437l-153 -437h-42l-187 514h55l154 -448l154 450h39l154 -450l154 448h53z" />
    <glyph glyph-name="x" unicode="x" horiz-adv-x="570" 
d="M525 0h-61l-180 227l-180 -227h-59l209 260l-201 250h61l172 -216l172 216h59l-201 -249z" />
    <glyph glyph-name="y" unicode="y" horiz-adv-x="588" 
d="M546 510l-221 -528q-33 -78 -73.5 -111.5t-96.5 -33.5q-51 0 -101 22l17 43q39 -19 87 -19q40 0 69 27t57 93l-245 507h57l212 -456l184 456h54z" />
    <glyph glyph-name="z" unicode="z" horiz-adv-x="554" 
d="M499 0h-441v28l368 438h-354v44h427v-28l-368 -438h368v-44z" />
    <glyph glyph-name="braceleft" unicode="{" horiz-adv-x="480" 
d="M423 683q-58 -15 -91 -29.5t-50.5 -36.5t-22.5 -45.5t-5 -65.5v-75q0 -63 -26.5 -96t-77.5 -48q54 -18 79 -49.5t25 -94.5v-75q0 -42 5 -65.5t22.5 -45.5t50.5 -36.5t91 -29.5l-7 -32q-66 12 -108.5 30.5t-64.5 45t-30 56t-8 71.5v79q0 63 -26.5 95t-93.5 32h-26v38h26
q67 0 93.5 32t26.5 95v79q0 42 8 71.5t30 56t64.5 45t108.5 30.5z" />
    <glyph glyph-name="bar" unicode="|" horiz-adv-x="286" 
d="M165 -128h-44v926h44v-926z" />
    <glyph glyph-name="braceright" unicode="}" horiz-adv-x="480" 
d="M57 -109q58 15 91 29.5t50.5 36.5t22.5 45.5t5 65.5v75q0 63 26.5 96t77.5 48q-54 18 -79 49.5t-25 94.5v75q0 42 -5 65.5t-22.5 45.5t-50.5 36.5t-91 29.5l7 32q66 -12 108.5 -30.5t64.5 -45t30 -56t8 -71.5v-79q0 -63 26.5 -95t93.5 -32h26v-38h-26q-67 0 -93.5 -32
t-26.5 -95v-79q0 -42 -8 -71.5t-30 -56t-64.5 -45t-108.5 -30.5z" />
    <glyph glyph-name="asciitilde" unicode="~" horiz-adv-x="460" 
d="M378 344q-14 -52 -33.5 -72.5t-50.5 -20.5q-20 0 -65.5 20.5t-62.5 20.5q-18 0 -28.5 -10.5t-21.5 -39.5l-34 9q14 52 33.5 72.5t50.5 20.5q20 0 66 -20.5t62 -20.5q18 0 28.5 10.5t21.5 39.5z" />
    <glyph glyph-name="nbspace" unicode="&#xa0;" horiz-adv-x="300" 
 />
    <glyph glyph-name="exclamdown" unicode="&#xa1;" horiz-adv-x="252" 
d="M93 700h66v-85h-66v85zM155 0h-58v70l15 447h28l15 -447v-70z" />
    <glyph glyph-name="cent" unicode="&#xa2;" horiz-adv-x="581" 
d="M530 189q-89 -101 -208 -101q-20 0 -39 3l-19 -97h-50l22 109q-77 27 -125.5 96.5t-48.5 154.5q0 109 76 188.5t184 79.5h15l16 84h50l-18 -91q73 -15 141 -87l-35 -36q-64 64 -118 78l-83 -433q17 -3 35 -3q95 0 171 85zM330 576h-9q-87 0 -146.5 -64t-59.5 -156
q0 -70 36.5 -126t96.5 -81z" />
    <glyph glyph-name="sterling" unicode="&#xa3;" horiz-adv-x="644" 
d="M156 353v118q0 107 57.5 173t157.5 66q129 0 210 -106l-40 -31q-35 44 -74 67t-97 23q-78 0 -120.5 -51t-42.5 -140v-119h298v-48h-298v-258h374v-47h-511v25l86 20v260h-86v48h86z" />
    <glyph glyph-name="currency" unicode="&#xa4;" horiz-adv-x="720" 
d="M144 416h-85v48h94q28 110 100.5 179t167.5 69q147 0 240 -140l-40 -27q-43 63 -88.5 92t-113.5 29q-74 0 -132 -56t-83 -146h284v-48h-293q-5 -35 -5 -65q0 -29 3 -58h295v-48h-286q24 -95 85 -153t144 -58q111 0 194 128l38 -25q-97 -149 -235 -149q-102 0 -177.5 70.5
t-101.5 186.5h-90v48h83q-3 27 -3 56q0 30 5 67z" />
    <glyph glyph-name="yen" unicode="&#xa5;" horiz-adv-x="686" 
d="M368 268v-98h213v-45h-213v-125h-50v125h-213v45h213v98h-213v45h195l-268 387h63l249 -373l250 373h60l-269 -387h196v-45h-213z" />
    <glyph glyph-name="section" unicode="&#xa7;" horiz-adv-x="632" 
d="M567 336q0 -45 -40 -75.5t-108 -38.5q86 -38 86 -106q0 -57 -48 -91.5t-128 -34.5q-65 0 -124.5 26t-102.5 69l38 36q80 -82 194 -82q57 0 86.5 21.5t29.5 56.5q0 34 -41 58.5t-142 48.5q-111 27 -156.5 58.5t-45.5 81.5q0 45 40 75.5t108 38.5q-86 38 -86 106
q0 57 48 91.5t128 34.5q65 0 124.5 -26t102.5 -69l-38 -36q-80 82 -194 82q-57 0 -86.5 -21.5t-29.5 -56.5q0 -34 41 -58.5t142 -48.5q111 -27 156.5 -58.5t45.5 -81.5zM515 332q0 30 -34 53.5t-123 45.5q-65 16 -112 16q-57 0 -93 -23.5t-36 -55.5q0 -30 34 -53.5
t123 -45.5q64 -16 112 -16q57 0 93 23.5t36 55.5z" />
    <glyph glyph-name="dieresis" unicode="&#xa8;" 
d="M366 595h-69v80h69v-80zM203 595h-69v80h69v-80z" />
    <glyph glyph-name="copyright" unicode="&#xa9;" horiz-adv-x="830" 
d="M777 351q0 -149 -106 -256t-257 -107t-256 106t-105 255t106 256t257 107t256 -106t105 -255zM747 351q0 139 -95 236t-236 97t-237 -98t-96 -237t95 -236t236 -97t237 98t96 237zM563 230q-66 -64 -144 -64q-77 0 -129.5 55t-52.5 134q0 78 52.5 134t130.5 56
q77 0 141 -61l-30 -31q-54 52 -112 52q-60 0 -99 -43.5t-39 -105.5t40.5 -106t98.5 -44q60 0 115 52z" />
    <glyph glyph-name="ordfeminine" unicode="&#xaa;" horiz-adv-x="390" 
d="M309 417h-37v41q-36 -47 -98 -47q-44 0 -76.5 24t-32.5 67q0 44 34 69t90 25q41 0 83 -11v5q0 38 -22 57.5t-61 19.5q-37 0 -88 -24l-13 34q55 26 103 26q56 0 87 -28.5t31 -83.5v-174zM314 293h-252v40h252v-40zM272 524v27q-36 11 -85 11q-39 0 -60.5 -16t-21.5 -42
q0 -27 20.5 -42t50.5 -15q39 0 67.5 21.5t28.5 55.5z" />
    <glyph glyph-name="guillemotleft" unicode="&#xab;" horiz-adv-x="515" 
d="M415 468l37 -24l-137 -188l137 -190l-37 -24l-160 209v8zM211 468l37 -24l-137 -188l137 -190l-37 -24l-160 209v8z" />
    <glyph glyph-name="registered" unicode="&#xae;" horiz-adv-x="830" 
d="M777 351q0 -149 -106 -256t-257 -107t-256 106t-105 255t106 256t257 107t256 -106t105 -255zM747 351q0 139 -95 236t-236 97t-237 -98t-96 -237t95 -236t236 -97t237 98t96 237zM575 437q0 -43 -27 -70t-73 -36l122 -154h-56l-116 147h-106v-147h-43v366h164
q59 0 97 -29t38 -77zM530 435q0 31 -24.5 49t-67.5 18h-119v-138h114q43 0 70 18.5t27 52.5z" />
    <glyph glyph-name="macron" unicode="&#xaf;" 
d="M400 600h-300v53h300v-53z" />
    <glyph glyph-name="degree" unicode="&#xb0;" horiz-adv-x="450" 
d="M376 559q0 -59 -45.5 -103t-105.5 -44t-105.5 44t-45.5 103t45.5 103t105.5 44t105.5 -44t45.5 -103zM326 559q0 41 -29 72t-72 31t-72 -31t-29 -72t29 -72t72 -31t72 31t29 72z" />
    <glyph glyph-name="plusminus" unicode="&#xb1;" horiz-adv-x="600" 
d="M537 185q0 -83 -66.5 -140t-167.5 -57q-81 0 -148 35.5t-110 93.5l42 31q85 -113 218 -113q77 0 127.5 41t50.5 108q0 69 -54.5 107.5t-152.5 38.5h-70v46h71q82 0 134.5 39.5t52.5 107.5q0 62 -46.5 102t-121.5 40q-117 0 -195 -107l-40 24q88 130 237 130
q95 0 157.5 -53.5t62.5 -133.5q0 -122 -133 -167q69 -20 110.5 -63.5t41.5 -109.5z" />
    <glyph glyph-name="acute" unicode="&#xb4;" 
d="M236 595h-42l88 133l61 -30z" />
    <glyph glyph-name="mu" unicode="&#xb5;" horiz-adv-x="850" 
d="M777 351q0 -85 -35.5 -161t-99.5 -127l170 -160v-4h-75l-142 131q-78 -42 -171 -42q-155 0 -253 106t-98 255q0 96 43.5 178.5t125 133.5t184.5 51q155 0 253 -106t98 -255zM723 349q0 132 -85.5 224t-213.5 92t-212.5 -91t-84.5 -223t85.5 -224t213.5 -92t212.5 91
t84.5 223z" />
    <glyph glyph-name="paragraph" unicode="&#xb6;" horiz-adv-x="480" 
d="M312 700h74v-700h-53v277h-6q-120 0 -197 56.5t-77 155.5q0 98 71.5 154.5t187.5 56.5z" />
    <glyph glyph-name="periodcentered" unicode="&#xb7;" horiz-adv-x="230" 
d="M148 255h-66v85h66v-85z" />
    <glyph glyph-name="cedilla" unicode="&#xb8;" 
d="M252 10h43l-78 -158l-55 26z" />
    <glyph glyph-name="ordmasculine" unicode="&#xba;" horiz-adv-x="390" 
d="M339 559q0 -61 -41.5 -104.5t-103.5 -43.5q-61 0 -102 43t-41 103q0 61 41.5 104.5t103.5 43.5q61 0 102 -43t41 -103zM339 293h-288v40h288v-40zM296 557q0 46 -29.5 77.5t-72.5 31.5q-44 0 -72 -31t-28 -76q0 -46 29.5 -77.5t72.5 -31.5q44 0 72 31t28 76z" />
    <glyph glyph-name="guillemotright" unicode="&#xbb;" horiz-adv-x="515" 
d="M304 42l-37 24l137 188l-137 190l37 24l160 -209v-8zM100 42l-37 24l137 188l-137 190l37 24l160 -209v-8z" />
    <glyph glyph-name="questiondown" unicode="&#xbf;" horiz-adv-x="534" 
d="M256 700h66v-85h-66v85zM313 350q-98 -2 -153 -45t-55 -116q0 -64 45.5 -108t120.5 -44q109 0 193 103l36 -30q-46 -58 -101 -88.5t-130 -30.5q-97 0 -157 56.5t-60 139.5q0 89 59.5 141.5t152.5 63.5l9 125h32l13 -162z" />
    <glyph glyph-name="Agrave" unicode="&#xc0;" horiz-adv-x="790" 
d="M746 0h-57l-89 196h-413l-89 -196h-54l326 705h50zM578 243l-184 405l-185 -405h369zM370 765l-107 103l61 30l88 -133h-42z" />
    <glyph glyph-name="Aacute" unicode="&#xc1;" horiz-adv-x="790" 
d="M746 0h-57l-89 196h-413l-89 -196h-54l326 705h50zM578 243l-184 405l-185 -405h369zM420 765h-42l88 133l61 -30z" />
    <glyph glyph-name="Acircumflex" unicode="&#xc2;" horiz-adv-x="790" 
d="M746 0h-57l-89 196h-413l-89 -196h-54l326 705h50zM578 243l-184 405l-185 -405h369zM394 828l-74 -68h-45l100 122h40l100 -122h-47z" />
    <glyph glyph-name="Atilde" unicode="&#xc3;" horiz-adv-x="790" 
d="M746 0h-57l-89 196h-413l-89 -196h-54l326 705h50zM578 243l-184 405l-185 -405h369zM543 858q-14 -52 -33.5 -72.5t-50.5 -20.5q-19 0 -65 20.5t-63 20.5q-18 0 -28.5 -10.5t-21.5 -39.5l-34 9q14 52 33.5 72.5t50.5 20.5q19 0 65 -20.5t63 -20.5q18 0 28.5 10.5
t21.5 39.5z" />
    <glyph glyph-name="Adieresis" unicode="&#xc4;" horiz-adv-x="790" 
d="M746 0h-57l-89 196h-413l-89 -196h-54l326 705h50zM578 243l-184 405l-185 -405h369zM511 765h-69v80h69v-80zM348 765h-69v80h69v-80z" />
    <glyph glyph-name="Aring" unicode="&#xc5;" horiz-adv-x="790" 
d="M357 678q-26 11 -43 34t-17 52q0 39 29.5 66.5t68.5 27.5t68.5 -27.5t29.5 -66.5q0 -29 -17 -52t-43 -34l313 -678h-57l-89 196h-413l-89 -196h-54zM457 764q0 26 -18.5 44t-43.5 18t-43.5 -18t-18.5 -44t18.5 -44t43.5 -18t43.5 18t18.5 44zM578 243l-184 405l-185 -405
h369z" />
    <glyph glyph-name="AE" unicode="&#xc6;" horiz-adv-x="1045" 
d="M194 196l-118 -196h-56l424 700h533v-48h-431v-275h386v-48h-386v-281h436v-48h-488v196h-300zM468 653l-246 -410h272v410h-26z" />
    <glyph glyph-name="Ccedilla" unicode="&#xc7;" horiz-adv-x="738" 
d="M388 -11q-137 13 -226 115t-89 245q0 152 100 257.5t250 105.5q87 0 149.5 -28.5t122.5 -83.5l-37 -38q-106 103 -236 103q-126 0 -210.5 -90t-84.5 -224t85.5 -225t210.5 -91q73 0 129 27t112 82l35 -34q-58 -57 -120.5 -88t-144.5 -34l-67 -136l-55 26z" />
    <glyph glyph-name="Egrave" unicode="&#xc8;" horiz-adv-x="670" 
d="M607 0h-503v700h498v-48h-446v-275h401v-48h-401v-281h451v-48zM349 765l-107 103l61 30l88 -133h-42z" />
    <glyph glyph-name="Eacute" unicode="&#xc9;" horiz-adv-x="670" 
d="M607 0h-503v700h498v-48h-446v-275h401v-48h-401v-281h451v-48zM351 765h-42l88 133l61 -30z" />
    <glyph glyph-name="Ecircumflex" unicode="&#xca;" horiz-adv-x="670" 
d="M607 0h-503v700h498v-48h-446v-275h401v-48h-401v-281h451v-48zM348 833l-74 -68h-45l100 122h40l100 -122h-47z" />
    <glyph glyph-name="Edieresis" unicode="&#xcb;" horiz-adv-x="670" 
d="M607 0h-503v700h498v-48h-446v-275h401v-48h-401v-281h451v-48zM465 765h-69v80h69v-80zM302 765h-69v80h69v-80z" />
    <glyph glyph-name="Igrave" unicode="&#xcc;" horiz-adv-x="274" 
d="M163 0h-52v700h52v-700zM114 765l-107 103l61 30l88 -133h-42z" />
    <glyph glyph-name="Iacute" unicode="&#xcd;" horiz-adv-x="274" 
d="M163 0h-52v700h52v-700zM160 765h-42l88 133l61 -30z" />
    <glyph glyph-name="Icircumflex" unicode="&#xce;" horiz-adv-x="274" 
d="M163 0h-52v700h52v-700zM137 833l-74 -68h-45l100 122h40l100 -122h-47z" />
    <glyph glyph-name="Idieresis" unicode="&#xcf;" horiz-adv-x="274" 
d="M163 0h-52v700h52v-700zM254 765h-69v80h69v-80zM91 765h-69v80h69v-80z" />
    <glyph glyph-name="Eth" unicode="&#xd0;" horiz-adv-x="812" 
d="M134 328h-75v48h75v324h233q163 0 267.5 -99.5t104.5 -249.5t-104.5 -250.5t-267.5 -100.5h-233v328zM186 376h232v-48h-232v-280h181q143 0 230.5 86t87.5 215t-87.5 216t-230.5 87h-181v-276z" />
    <glyph glyph-name="Ntilde" unicode="&#xd1;" horiz-adv-x="790" 
d="M686 0h-39l-493 622v-622h-50v700h49l483 -609v609h50v-700zM543 858q-14 -52 -33.5 -72.5t-50.5 -20.5q-19 0 -65 20.5t-63 20.5q-18 0 -28.5 -10.5t-21.5 -39.5l-34 9q14 52 33.5 72.5t50.5 20.5q19 0 65 -20.5t63 -20.5q18 0 28.5 10.5t21.5 39.5z" />
    <glyph glyph-name="Ograve" unicode="&#xd2;" horiz-adv-x="850" 
d="M777 350q0 -148 -99 -255t-254 -107t-253 106t-98 254v2q0 148 99 255t254 107t253 -106t98 -254q1 -1 0 -2zM723 348v2q0 131 -85.5 223t-213.5 92t-212.5 -91t-84.5 -222v-2q0 -131 85.5 -223t213.5 -92t212.5 91t84.5 222zM399 765l-107 103l61 30l88 -133h-42z" />
    <glyph glyph-name="Oacute" unicode="&#xd3;" horiz-adv-x="850" 
d="M777 350q0 -148 -99 -255t-254 -107t-253 106t-98 254v2q0 148 99 255t254 107t253 -106t98 -254q1 -1 0 -2zM723 348v2q0 131 -85.5 223t-213.5 92t-212.5 -91t-84.5 -222v-2q0 -131 85.5 -223t213.5 -92t212.5 91t84.5 222zM451 765h-42l88 133l61 -30z" />
    <glyph glyph-name="Ocircumflex" unicode="&#xd4;" horiz-adv-x="850" 
d="M777 350q0 -148 -99 -255t-254 -107t-253 106t-98 254v2q0 148 99 255t254 107t253 -106t98 -254q1 -1 0 -2zM723 348v2q0 131 -85.5 223t-213.5 92t-212.5 -91t-84.5 -222v-2q0 -131 85.5 -223t213.5 -92t212.5 91t84.5 222zM424 833l-74 -68h-45l100 122h40l100 -122
h-47z" />
    <glyph glyph-name="Otilde" unicode="&#xd5;" horiz-adv-x="850" 
d="M777 350q0 -148 -99 -255t-254 -107t-253 106t-98 254v2q0 148 99 255t254 107t253 -106t98 -254q1 -1 0 -2zM723 348v2q0 131 -85.5 223t-213.5 92t-212.5 -91t-84.5 -222v-2q0 -131 85.5 -223t213.5 -92t212.5 91t84.5 222zM573 858q-14 -52 -33.5 -72.5t-50.5 -20.5
q-19 0 -65 20.5t-63 20.5q-18 0 -28.5 -10.5t-21.5 -39.5l-34 9q14 52 33.5 72.5t50.5 20.5q19 0 65 -20.5t63 -20.5q18 0 28.5 10.5t21.5 39.5z" />
    <glyph glyph-name="Odieresis" unicode="&#xd6;" horiz-adv-x="850" 
d="M777 350q0 -148 -99 -255t-254 -107t-253 106t-98 254v2q0 148 99 255t254 107t253 -106t98 -254q1 -1 0 -2zM723 348v2q0 131 -85.5 223t-213.5 92t-212.5 -91t-84.5 -222v-2q0 -131 85.5 -223t213.5 -92t212.5 91t84.5 222zM541 765h-69v80h69v-80zM378 765h-69v80h69
v-80z" />
    <glyph glyph-name="Oslash" unicode="&#xd8;" horiz-adv-x="850" 
d="M777 351q0 -96 -43.5 -178.5t-125 -133.5t-184.5 -51q-134 0 -228 83l-71 -76h-60l100 106q-92 103 -92 248q0 96 43.5 178.5t125 133.5t184.5 51q134 0 228 -83l71 76h60l-100 -107q92 -101 92 -247zM621 591q-83 75 -197 75q-129 0 -213.5 -91t-84.5 -224
q0 -122 74 -212zM724 349q0 122 -74 212l-421 -452q83 -75 197 -75q129 0 213.5 91t84.5 224z" />
    <glyph glyph-name="Ugrave" unicode="&#xd9;" horiz-adv-x="760" 
d="M667 297q0 -147 -78 -227.5t-209 -80.5q-129 0 -208 79t-79 223v409h52v-404q0 -123 63 -191.5t174 -68.5q109 0 171 65.5t62 189.5v409h52v-403zM363 760l-107 103l61 30l88 -133h-42z" />
    <glyph glyph-name="Uacute" unicode="&#xda;" horiz-adv-x="760" 
d="M667 297q0 -147 -78 -227.5t-209 -80.5q-129 0 -208 79t-79 223v409h52v-404q0 -123 63 -191.5t174 -68.5q109 0 171 65.5t62 189.5v409h52v-403zM397 760h-42l88 133l61 -30z" />
    <glyph glyph-name="Ucircumflex" unicode="&#xdb;" horiz-adv-x="760" 
d="M667 297q0 -147 -78 -227.5t-209 -80.5q-129 0 -208 79t-79 223v409h52v-404q0 -123 63 -191.5t174 -68.5q109 0 171 65.5t62 189.5v409h52v-403zM379 828l-74 -68h-45l100 122h40l100 -122h-47z" />
    <glyph glyph-name="Udieresis" unicode="&#xdc;" horiz-adv-x="760" 
d="M667 297q0 -147 -78 -227.5t-209 -80.5q-129 0 -208 79t-79 223v409h52v-404q0 -123 63 -191.5t174 -68.5q109 0 171 65.5t62 189.5v409h52v-403zM496 760h-69v80h69v-80zM333 760h-69v80h69v-80z" />
    <glyph glyph-name="Yacute" unicode="&#xdd;" horiz-adv-x="716" 
d="M684 700l-300 -422v-278h-52v277l-300 423h65l262 -376l263 376h62zM382 760h-42l88 133l61 -30z" />
    <glyph glyph-name="Thorn" unicode="&#xde;" horiz-adv-x="673" 
d="M618 358q0 -106 -78.5 -165.5t-194.5 -59.5h-189v-133h-52v700h52v-127h202q117 0 188.5 -57.5t71.5 -157.5zM566 355q0 82 -57.5 126t-154.5 44h-198v-344h192q98 0 158 47.5t60 126.5z" />
    <glyph glyph-name="germandbls" unicode="&#xdf;" horiz-adv-x="620" 
d="M512 561q0 -69 -45.5 -118t-111.5 -73q88 -15 145 -59.5t57 -120.5q0 -90 -72 -141t-196 -51v43q101 2 158 39.5t57 107.5q0 131 -215 154v41q170 52 170 176q0 58 -41.5 95t-107.5 37q-74 0 -121 -52t-47 -139v-500h-49v500q0 105 60 171t160 66q89 0 144 -50t55 -126z
" />
    <glyph glyph-name="agrave" unicode="&#xe0;" horiz-adv-x="574" 
d="M491 0h-48v85q-69 -97 -195 -97q-78 0 -137.5 42.5t-59.5 117.5v2q0 78 61 122t162 44q86 0 169 -22v22q0 76 -44 116t-124 40t-160 -41l-18 43q95 44 181 44q100 0 156.5 -51.5t56.5 -148.5v-318zM444 191v58q-90 23 -173 23q-80 0 -124 -32.5t-44 -86.5v-2
q0 -53 43.5 -85t104.5 -32q80 0 136.5 44.5t56.5 112.5zM264 595l-107 103l61 30l88 -133h-42z" />
    <glyph glyph-name="aacute" unicode="&#xe1;" horiz-adv-x="574" 
d="M491 0h-48v85q-69 -97 -195 -97q-78 0 -137.5 42.5t-59.5 117.5v2q0 78 61 122t162 44q86 0 169 -22v22q0 76 -44 116t-124 40t-160 -41l-18 43q95 44 181 44q100 0 156.5 -51.5t56.5 -148.5v-318zM444 191v58q-90 23 -173 23q-80 0 -124 -32.5t-44 -86.5v-2
q0 -53 43.5 -85t104.5 -32q80 0 136.5 44.5t56.5 112.5zM298 595h-42l88 133l61 -30z" />
    <glyph glyph-name="acircumflex" unicode="&#xe2;" horiz-adv-x="574" 
d="M491 0h-48v85q-69 -97 -195 -97q-78 0 -137.5 42.5t-59.5 117.5v2q0 78 61 122t162 44q86 0 169 -22v22q0 76 -44 116t-124 40t-160 -41l-18 43q95 44 181 44q100 0 156.5 -51.5t56.5 -148.5v-318zM444 191v58q-90 23 -173 23q-80 0 -124 -32.5t-44 -86.5v-2
q0 -53 43.5 -85t104.5 -32q80 0 136.5 44.5t56.5 112.5zM289 663l-74 -68h-45l100 122h40l100 -122h-47z" />
    <glyph glyph-name="atilde" unicode="&#xe3;" horiz-adv-x="574" 
d="M491 0h-48v85q-69 -97 -195 -97q-78 0 -137.5 42.5t-59.5 117.5v2q0 78 61 122t162 44q86 0 169 -22v22q0 76 -44 116t-124 40t-160 -41l-18 43q95 44 181 44q100 0 156.5 -51.5t56.5 -148.5v-318zM444 191v58q-90 23 -173 23q-80 0 -124 -32.5t-44 -86.5v-2
q0 -53 43.5 -85t104.5 -32q80 0 136.5 44.5t56.5 112.5zM438 688q-14 -52 -33.5 -72.5t-50.5 -20.5q-19 0 -65 20.5t-63 20.5q-18 0 -28.5 -10.5t-21.5 -39.5l-34 9q14 52 33.5 72.5t50.5 20.5q19 0 65.5 -20.5t62.5 -20.5q18 0 28.5 10.5t21.5 39.5z" />
    <glyph glyph-name="adieresis" unicode="&#xe4;" horiz-adv-x="574" 
d="M491 0h-48v85q-69 -97 -195 -97q-78 0 -137.5 42.5t-59.5 117.5v2q0 78 61 122t162 44q86 0 169 -22v22q0 76 -44 116t-124 40t-160 -41l-18 43q95 44 181 44q100 0 156.5 -51.5t56.5 -148.5v-318zM444 191v58q-90 23 -173 23q-80 0 -124 -32.5t-44 -86.5v-2
q0 -53 43.5 -85t104.5 -32q80 0 136.5 44.5t56.5 112.5zM406 595h-69v80h69v-80zM243 595h-69v80h69v-80z" />
    <glyph glyph-name="aring" unicode="&#xe5;" horiz-adv-x="574" 
d="M491 0h-48v85q-69 -97 -195 -97q-78 0 -137.5 42.5t-59.5 117.5v2q0 78 61 122t162 44q86 0 169 -22v22q0 76 -44 116t-124 40t-160 -41l-18 43q95 44 181 44q100 0 156.5 -51.5t56.5 -148.5v-318zM444 191v58q-90 23 -173 23q-80 0 -124 -32.5t-44 -86.5v-2
q0 -53 43.5 -85t104.5 -32q80 0 136.5 44.5t56.5 112.5zM388 687q0 -39 -29.5 -66.5t-68.5 -27.5t-68.5 27.5t-29.5 66.5t29.5 66.5t68.5 27.5t68.5 -27.5t29.5 -66.5zM352 687q0 25 -18 43.5t-44 18.5t-44 -18.5t-18 -43.5t18 -43.5t44 -18.5t44 18.5t18 43.5z" />
    <glyph glyph-name="ae" unicode="&#xe6;" horiz-adv-x="954" 
d="M472 100q-97 -112 -229 -112q-77 0 -134.5 42.5t-57.5 118.5q0 79 60 123t158 44q77 0 160 -22v22q0 76 -42 116t-119 40q-73 0 -153 -41l-18 43q93 44 174 44q158 0 193 -128q31 60 85.5 96t120.5 36q105 0 169.5 -76t64.5 -192q0 -11 -1 -19h-423q7 -92 64.5 -146.5
t135.5 -54.5q100 0 175 80l34 -30q-89 -96 -211 -96q-63 0 -117.5 29.5t-88.5 82.5zM480 279h371q-6 84 -53 141t-130 57q-75 0 -128 -56.5t-60 -141.5zM428 250q-95 22 -162 22q-77 0 -120 -32.5t-43 -87.5q0 -54 41 -86t102 -32q118 0 204 107q-21 52 -22 109z" />
    <glyph glyph-name="ccedilla" unicode="&#xe7;" horiz-adv-x="571" 
d="M284 -10q-97 13 -161.5 88.5t-64.5 175.5q0 109 76 188.5t184 79.5q114 0 204 -94l-35 -36q-82 84 -170 84q-87 0 -146.5 -64t-59.5 -156q0 -93 61 -157.5t149 -64.5q95 0 171 85l34 -30q-86 -96 -196 -101l-67 -136l-55 26z" />
    <glyph glyph-name="egrave" unicode="&#xe8;" horiz-adv-x="584" 
d="M110 235q7 -92 64.5 -146.5t135.5 -54.5q100 0 175 80l34 -30q-89 -96 -211 -96q-103 0 -176.5 75t-73.5 191v2q0 112 69.5 189t172.5 77q105 0 169.5 -76t64.5 -191v-2q0 -10 -1 -18h-423zM110 279h371q-6 84 -53 141t-130 57q-75 0 -128 -56.5t-60 -141.5zM286 595
l-107 103l61 30l88 -133h-42z" />
    <glyph glyph-name="eacute" unicode="&#xe9;" horiz-adv-x="584" 
d="M110 235q7 -92 64.5 -146.5t135.5 -54.5q100 0 175 80l34 -30q-89 -96 -211 -96q-103 0 -176.5 75t-73.5 191v2q0 112 69.5 189t172.5 77q105 0 169.5 -76t64.5 -191v-2q0 -10 -1 -18h-423zM110 279h371q-6 84 -53 141t-130 57q-75 0 -128 -56.5t-60 -141.5zM299 595h-42
l88 133l61 -30z" />
    <glyph glyph-name="ecircumflex" unicode="&#xea;" horiz-adv-x="584" 
d="M110 235q7 -92 64.5 -146.5t135.5 -54.5q100 0 175 80l34 -30q-89 -96 -211 -96q-103 0 -176.5 75t-73.5 191v2q0 112 69.5 189t172.5 77q105 0 169.5 -76t64.5 -191v-2q0 -10 -1 -18h-423zM110 279h371q-6 84 -53 141t-130 57q-75 0 -128 -56.5t-60 -141.5zM296 663
l-74 -68h-45l100 122h40l100 -122h-47z" />
    <glyph glyph-name="edieresis" unicode="&#xeb;" horiz-adv-x="584" 
d="M110 235q7 -92 64.5 -146.5t135.5 -54.5q100 0 175 80l34 -30q-89 -96 -211 -96q-103 0 -176.5 75t-73.5 191v2q0 112 69.5 189t172.5 77q105 0 169.5 -76t64.5 -191v-2q0 -10 -1 -18h-423zM110 279h371q-6 84 -53 141t-130 57q-75 0 -128 -56.5t-60 -141.5zM413 595h-69
v80h69v-80zM250 595h-69v80h69v-80z" />
    <glyph glyph-name="igrave" unicode="&#xec;" horiz-adv-x="249" 
d="M149 0h-49v510h49v-510zM102 595l-107 103l61 30l88 -133h-42z" />
    <glyph glyph-name="iacute" unicode="&#xed;" horiz-adv-x="249" 
d="M149 0h-49v510h49v-510zM147 595h-42l88 133l61 -30z" />
    <glyph glyph-name="icircumflex" unicode="&#xee;" horiz-adv-x="249" 
d="M149 0h-49v510h49v-510zM123 663l-74 -68h-45l100 122h40l100 -122h-47z" />
    <glyph glyph-name="idieresis" unicode="&#xef;" horiz-adv-x="249" 
d="M149 0h-49v510h49v-510zM240 595h-69v80h69v-80zM77 595h-69v80h69v-80z" />
    <glyph glyph-name="eth" unicode="&#xf0;" horiz-adv-x="628" 
d="M328 631l-133 -68l-29 36l137 67l-45 64h63l27 -41l98 50l28 -36l-102 -50l109 -161q44 -66 65.5 -121t21.5 -123q0 -107 -72.5 -183.5t-186.5 -76.5q-107 0 -179 75.5t-72 180.5q0 106 71 174t169 68q95 0 177 -63zM515 243q0 82 -61 140.5t-150 58.5q-87 0 -140 -57
t-53 -144q0 -83 58.5 -145t144.5 -62q88 0 144.5 61.5t56.5 147.5z" />
    <glyph glyph-name="ntilde" unicode="&#xf1;" horiz-adv-x="613" 
d="M530 0h-49v303q0 80 -43 127t-119 47t-126.5 -51.5t-50.5 -130.5v-295h-49v510h49v-95q61 107 184 107q95 0 149.5 -58.5t54.5 -151.5v-312zM459 688q-14 -52 -33.5 -72.5t-50.5 -20.5q-19 0 -65 20.5t-63 20.5q-18 0 -28.5 -10.5t-21.5 -39.5l-34 9q14 52 33.5 72.5
t50.5 20.5q19 0 65 -20.5t63 -20.5q18 0 28.5 10.5t21.5 39.5z" />
    <glyph glyph-name="ograve" unicode="&#xf2;" horiz-adv-x="640" 
d="M582 255q0 -109 -75.5 -188t-187.5 -79t-186.5 78t-74.5 187v2q0 109 75.5 188t187.5 79t186.5 -78t74.5 -187v-2zM529 253v2q0 92 -61 156.5t-149 64.5q-90 0 -149 -64t-59 -155v-2q0 -92 61 -156.5t149 -64.5q90 0 149 64t59 155zM298 595l-107 103l61 30l88 -133h-42z
" />
    <glyph glyph-name="oacute" unicode="&#xf3;" horiz-adv-x="640" 
d="M582 255q0 -109 -75.5 -188t-187.5 -79t-186.5 78t-74.5 187v2q0 109 75.5 188t187.5 79t186.5 -78t74.5 -187v-2zM529 253v2q0 92 -61 156.5t-149 64.5q-90 0 -149 -64t-59 -155v-2q0 -92 61 -156.5t149 -64.5q90 0 149 64t59 155zM342 595h-42l88 133l61 -30z" />
    <glyph glyph-name="ocircumflex" unicode="&#xf4;" horiz-adv-x="640" 
d="M582 255q0 -109 -75.5 -188t-187.5 -79t-186.5 78t-74.5 187v2q0 109 75.5 188t187.5 79t186.5 -78t74.5 -187v-2zM529 253v2q0 92 -61 156.5t-149 64.5q-90 0 -149 -64t-59 -155v-2q0 -92 61 -156.5t149 -64.5q90 0 149 64t59 155zM319 663l-74 -68h-45l100 122h40
l100 -122h-47z" />
    <glyph glyph-name="otilde" unicode="&#xf5;" horiz-adv-x="640" 
d="M582 255q0 -109 -75.5 -188t-187.5 -79t-186.5 78t-74.5 187v2q0 109 75.5 188t187.5 79t186.5 -78t74.5 -187v-2zM529 253v2q0 92 -61 156.5t-149 64.5q-90 0 -149 -64t-59 -155v-2q0 -92 61 -156.5t149 -64.5q90 0 149 64t59 155zM468 688q-14 -52 -33.5 -72.5
t-50.5 -20.5q-20 0 -66 20.5t-62 20.5q-18 0 -28.5 -10.5t-21.5 -39.5l-34 9q14 52 33.5 72.5t50.5 20.5q20 0 66 -20.5t62 -20.5q18 0 28.5 10.5t21.5 39.5z" />
    <glyph glyph-name="odieresis" unicode="&#xf6;" horiz-adv-x="640" 
d="M582 255q0 -109 -75.5 -188t-187.5 -79t-186.5 78t-74.5 187v2q0 109 75.5 188t187.5 79t186.5 -78t74.5 -187v-2zM529 253v2q0 92 -61 156.5t-149 64.5q-90 0 -149 -64t-59 -155v-2q0 -92 61 -156.5t149 -64.5q90 0 149 64t59 155zM436 595h-69v80h69v-80zM273 595h-69
v80h69v-80z" />
    <glyph glyph-name="oslash" unicode="&#xf8;" horiz-adv-x="640" 
d="M582 256q0 -110 -75.5 -189t-187.5 -79q-96 0 -167 60l-52 -53h-57l79 82q-64 77 -64 177q0 110 75.5 189t187.5 79q96 0 167 -61l52 56h57l-80 -84q65 -75 65 -177zM457 424q-59 53 -138 53q-91 0 -150 -63.5t-59 -157.5q0 -82 47 -143zM530 254q0 82 -48 143l-299 -312
q58 -52 138 -52q91 0 150 63.5t59 157.5z" />
    <glyph glyph-name="ugrave" unicode="&#xf9;" horiz-adv-x="613" 
d="M520 0h-49v95q-61 -107 -184 -107q-95 0 -149.5 58.5t-54.5 151.5v312h49v-303q0 -80 43 -127t119 -47t126.5 51.5t50.5 130.5v295h49v-510zM289 590l-107 103l61 30l88 -133h-42z" />
    <glyph glyph-name="uacute" unicode="&#xfa;" horiz-adv-x="613" 
d="M520 0h-49v95q-61 -107 -184 -107q-95 0 -149.5 58.5t-54.5 151.5v312h49v-303q0 -80 43 -127t119 -47t126.5 51.5t50.5 130.5v295h49v-510zM319 590h-42l88 133l61 -30z" />
    <glyph glyph-name="ucircumflex" unicode="&#xfb;" horiz-adv-x="613" 
d="M520 0h-49v95q-61 -107 -184 -107q-95 0 -149.5 58.5t-54.5 151.5v312h49v-303q0 -80 43 -127t119 -47t126.5 51.5t50.5 130.5v295h49v-510zM307 663l-74 -68h-45l100 122h40l100 -122h-47z" />
    <glyph glyph-name="udieresis" unicode="&#xfc;" horiz-adv-x="613" 
d="M520 0h-49v95q-61 -107 -184 -107q-95 0 -149.5 58.5t-54.5 151.5v312h49v-303q0 -80 43 -127t119 -47t126.5 51.5t50.5 130.5v295h49v-510zM424 595h-69v80h69v-80zM261 595h-69v80h69v-80z" />
    <glyph glyph-name="yacute" unicode="&#xfd;" horiz-adv-x="588" 
d="M546 510l-221 -528q-33 -78 -73.5 -111.5t-96.5 -33.5q-51 0 -101 22l17 43q39 -19 87 -19q40 0 69 27t57 93l-245 507h57l212 -456l184 456h54zM323 590h-42l88 133l61 -30z" />
    <glyph glyph-name="thorn" unicode="&#xfe;" horiz-adv-x="660" 
d="M600 256q0 -120 -75 -194t-173 -74q-130 0 -210 122v-270h-49v890h49v-334q83 126 210 126q98 0 173 -73.5t75 -192.5zM547 254q0 98 -58.5 159.5t-141.5 61.5t-145.5 -62.5t-62.5 -157.5q0 -96 62.5 -158t145.5 -62q86 0 143 59t57 160z" />
    <glyph glyph-name="ydieresis" unicode="&#xff;" horiz-adv-x="588" 
d="M546 510l-221 -528q-33 -78 -73.5 -111.5t-96.5 -33.5q-51 0 -101 22l17 43q39 -19 87 -19q40 0 69 27t57 93l-245 507h57l212 -456l184 456h54zM410 595h-69v80h69v-80zM247 595h-69v80h69v-80z" />
    <glyph glyph-name="dotlessi" unicode="&#x131;" horiz-adv-x="249" 
d="M149 0h-49v510h49v-510z" />
    <glyph glyph-name="Lslash" unicode="&#x141;" horiz-adv-x="649" 
d="M597 0h-463v316l-75 -23v48l75 23v336h51v-320l225 69v-48l-225 -69v-284h412v-48z" />
    <glyph glyph-name="lslash" unicode="&#x142;" horiz-adv-x="309" 
d="M179 350v-350h-49v336l-76 -24v50l76 23v345h49v-330l76 24v-50z" />
    <glyph glyph-name="OE" unicode="&#x152;" horiz-adv-x="1152" 
d="M1089 0h-644q-163 0 -267.5 99.5t-104.5 249.5t104.5 250.5t267.5 100.5h639v-48h-431v-275h386v-48h-386v-281h436v-48zM601 48v604h-156q-143 0 -230.5 -86t-87.5 -215t87.5 -216t230.5 -87h156z" />
    <glyph glyph-name="oe" unicode="&#x153;" horiz-adv-x="1055" 
d="M554 145q-30 -70 -93 -113.5t-143 -43.5q-110 0 -185 78.5t-75 187.5q0 110 75.5 189t186.5 79q79 0 141.5 -43t92.5 -113q28 71 86 113.5t132 42.5q105 0 169 -76t64 -192q0 -11 -1 -19h-423q7 -92 64.5 -146.5t135.5 -54.5q100 0 175 80l34 -30q-89 -96 -209 -96
q-75 0 -136.5 42.5t-90.5 114.5zM581 279h371q-6 84 -53 141t-130 57q-75 0 -128 -56.5t-60 -141.5zM529 254q0 93 -61 157.5t-149 64.5q-90 0 -149 -63.5t-59 -156.5t61 -157.5t149 -64.5q90 0 149 63.5t59 156.5z" />
    <glyph glyph-name="Scaron" unicode="&#x160;" horiz-adv-x="640" 
d="M573 181q0 -84 -65 -137.5t-167 -53.5q-157 0 -282 112l34 39q59 -55 117 -79.5t134 -24.5q78 0 127.5 39.5t49.5 99.5v2q0 58 -41.5 92t-156.5 57q-126 25 -181 71t-55 126v2q0 78 64 131t161 53q74 0 129.5 -20.5t110.5 -64.5l-33 -41q-91 79 -209 79q-76 0 -123.5 -38
t-47.5 -94v-2q0 -59 42.5 -94t161.5 -59q121 -25 175.5 -70.5t54.5 -122.5v-2zM328 819l74 68h45l-100 -122h-40l-100 122h47z" />
    <glyph glyph-name="scaron" unicode="&#x161;" horiz-adv-x="497" 
d="M434 139q0 -67 -50.5 -108t-125.5 -41q-55 0 -111.5 20.5t-97.5 53.5l29 39q87 -67 183 -67q53 0 88 27t35 70v2q0 17 -7.5 31.5t-19 24.5t-31 19t-36 14.5t-41.5 12.5q-35 10 -51 15t-45 18t-42.5 25.5t-25 34t-11.5 47.5v2q0 62 47 101.5t121 39.5q97 0 181 -56
l-26 -41q-77 51 -157 51q-52 0 -84 -25t-32 -64v-2q0 -16 8.5 -30t20 -23t33 -18.5t37 -14.5t43.5 -13q38 -11 62 -20t51.5 -25.5t41 -41t13.5 -56.5v-2zM252 649l74 68h45l-100 -122h-40l-100 122h47z" />
    <glyph glyph-name="Ydieresis" unicode="&#x178;" horiz-adv-x="716" 
d="M684 700l-300 -422v-278h-52v277l-300 423h65l262 -376l263 376h62zM474 760h-69v80h69v-80zM311 760h-69v80h69v-80z" />
    <glyph glyph-name="Zcaron" unicode="&#x17d;" horiz-adv-x="688" 
d="M621 0h-553v29l479 624h-462v47h536v-29l-479 -624h479v-47zM350 819l74 68h45l-100 -122h-40l-100 122h47z" />
    <glyph glyph-name="zcaron" unicode="&#x17e;" horiz-adv-x="554" 
d="M499 0h-441v28l368 438h-354v44h427v-28l-368 -438h368v-44zM287 649l74 68h45l-100 -122h-40l-100 122h47z" />
    <glyph glyph-name="florin" unicode="&#x192;" horiz-adv-x="506" 
d="M470 651q-40 10 -70 10q-41 0 -63 -23t-32 -76l-25 -133h155v-45h-163l-50 -266q-12 -63 -44 -93t-88 -30q-23 0 -49 4v44q20 -4 46 -4q67 0 82 82l49 263h-109v45h117l26 136q14 74 48.5 107t94.5 33q41 0 75 -10v-44z" />
    <glyph glyph-name="circumflex" unicode="&#x2c6;" 
d="M249 663l-74 -68h-45l100 122h40l100 -122h-47z" />
    <glyph glyph-name="caron" unicode="&#x2c7;" 
d="M251 649l74 68h45l-100 -122h-40l-100 122h47z" />
    <glyph glyph-name="breve" unicode="&#x2d8;" 
d="M383 717q-4 -58 -40.5 -91t-92.5 -33t-92.5 33t-40.5 91h39q19 -73 94 -73t94 73h39z" />
    <glyph glyph-name="dotaccent" unicode="&#x2d9;" 
d="M286 595h-72v81h72v-81z" />
    <glyph glyph-name="ring" unicode="&#x2da;" 
d="M348 687q0 -39 -29.5 -66.5t-68.5 -27.5t-68.5 27.5t-29.5 66.5t29.5 66.5t68.5 27.5t68.5 -27.5t29.5 -66.5zM312 687q0 25 -18 43.5t-44 18.5t-44 -18.5t-18 -43.5t18 -43.5t44 -18.5t44 18.5t18 43.5z" />
    <glyph glyph-name="ogonek" unicode="&#x2db;" 
d="M244 10q-6 -27 -6 -56q0 -81 118 -87v-31q-82 -3 -125.5 27t-43.5 80q0 34 14 67h43z" />
    <glyph glyph-name="tilde" unicode="&#x2dc;" 
d="M398 688q-14 -52 -33.5 -72.5t-50.5 -20.5q-20 0 -66 20.5t-62 20.5q-18 0 -28.5 -10.5t-21.5 -39.5l-34 9q14 52 33.5 72.5t50.5 20.5q20 0 66 -20.5t62 -20.5q18 0 28.5 10.5t21.5 39.5z" />
    <glyph glyph-name="hungarumlaut" unicode="&#x2dd;" 
d="M297 595h-43l89 133l55 -29zM145 595h-43l89 133l55 -29z" />
    <glyph glyph-name="Omega" unicode="&#x3a9;" horiz-adv-x="724" 
d="M534 510h178v-45h-178v-465h-49v465h-74v45h74v50q0 82 40 127.5t112 45.5q41 0 76 -12v-46q-42 13 -76 13q-103 0 -103 -129v-49zM172 510h178v-45h-178v-465h-49v465h-74v45h74v50q0 82 40 127.5t112 45.5q41 0 76 -12v-46q-42 13 -76 13q-103 0 -103 -129v-49z" />
    <glyph glyph-name="pi" unicode="&#x3c0;" horiz-adv-x="830" 
d="M777 351q0 -149 -106 -256t-257 -107t-256 106t-105 255t106 256t257 107t256 -106t105 -255zM747 351q0 139 -95 236t-236 97t-237 -98t-96 -237t95 -236t236 -97t237 98t96 237zM580 425q0 -59 -43 -90.5t-107 -31.5h-90v-128h-44v366h141q66 0 104.5 -30.5t38.5 -85.5
zM535 423q0 77 -101 77h-94v-156h91q48 0 76 20.5t28 58.5z" />
    <glyph glyph-name="endash" unicode="&#x2013;" horiz-adv-x="528" 
d="M458 271h-388v52h388v-52z" />
    <glyph glyph-name="emdash" unicode="&#x2014;" horiz-adv-x="898" 
d="M828 271h-758v52h758v-52z" />
    <glyph glyph-name="quoteleft" unicode="&#x2018;" horiz-adv-x="230" 
d="M172 680q-33 -17 -45.5 -35.5t-10.5 -46.5h27v-85h-66v74q0 47 19 74t64 44z" />
    <glyph glyph-name="quoteright" unicode="&#x2019;" horiz-adv-x="230" 
d="M58 533q33 17 45.5 35.5t10.5 46.5h-27v85h66v-74q0 -47 -19 -74t-64 -44z" />
    <glyph glyph-name="quotesinglbase" unicode="&#x201a;" horiz-adv-x="230" 
d="M53 -82q33 17 45.5 35.5t10.5 46.5h-27v85h66v-74q0 -47 -19 -74t-64 -44z" />
    <glyph glyph-name="quotedblleft" unicode="&#x201c;" horiz-adv-x="410" 
d="M352 680q-33 -17 -45.5 -35.5t-10.5 -46.5h27v-85h-66v74q0 47 19 74t64 44zM172 680q-33 -17 -45.5 -35.5t-10.5 -46.5h27v-85h-66v74q0 47 19 74t64 44z" />
    <glyph glyph-name="quotedblright" unicode="&#x201d;" horiz-adv-x="410" 
d="M238 533q33 17 45.5 35.5t10.5 46.5h-27v85h66v-74q0 -47 -19 -74t-64 -44zM58 533q33 17 45.5 35.5t10.5 46.5h-27v85h66v-74q0 -47 -19 -74t-64 -44z" />
    <glyph glyph-name="quotedblbase" unicode="&#x201e;" horiz-adv-x="410" 
d="M233 -82q33 17 45.5 35.5t10.5 46.5h-27v85h66v-74q0 -47 -19 -74t-64 -44zM53 -82q33 17 45.5 35.5t10.5 46.5h-27v85h66v-74q0 -47 -19 -74t-64 -44z" />
    <glyph glyph-name="dagger" unicode="&#x2020;" horiz-adv-x="410" 
d="M222 524l5 -286h-44l5 286l-125 -7v45l124 -7l-7 145h50l-7 -145l124 7v-45z" />
    <glyph glyph-name="daggerdbl" unicode="&#x2021;" horiz-adv-x="430" 
d="M357 138l-124 7l7 -145h-50l7 145l-124 -7v45l125 -7l-5 174l5 174l-125 -7v45l124 -7l-7 145h50l-7 -145l124 7v-45l-125 7l5 -174l-5 -174l125 7v-45z" />
    <glyph glyph-name="bullet" unicode="&#x2022;" horiz-adv-x="470" 
d="M359 352q0 -51 -36.5 -87.5t-87.5 -36.5t-87.5 36.5t-36.5 87.5t36.5 87.5t87.5 36.5t87.5 -36.5t36.5 -87.5z" />
    <glyph glyph-name="ellipsis" unicode="&#x2026;" horiz-adv-x="680" 
d="M598 0h-64v83h64v-83zM372 0h-64v83h64v-83zM146 0h-64v83h64v-83z" />
    <glyph glyph-name="perthousand" unicode="&#x2030;" horiz-adv-x="1200" 
d="M363 530q0 -74 -43.5 -127t-111.5 -53q-67 0 -110 52.5t-43 125.5q0 74 43.5 127t111.5 53q67 0 110 -52.5t43 -125.5zM642 700h54l-514 -700h-54zM1145 172q0 -74 -43.5 -127t-111.5 -53q-67 0 -110 52.5t-43 125.5q0 74 43.5 127t111.5 53q67 0 110 -52.5t43 -125.5z
M769 172q0 -74 -43.5 -127t-111.5 -53q-67 0 -110 52.5t-43 125.5q0 74 43.5 127t111.5 53q67 0 110 -52.5t43 -125.5zM311 528q0 59 -30 98t-73 39q-44 0 -72.5 -38.5t-28.5 -96.5q0 -59 30 -98t73 -39q44 0 72.5 38.5t28.5 96.5zM1093 170q0 59 -30 98t-73 39
q-44 0 -72.5 -38.5t-28.5 -96.5q0 -59 30 -98t73 -39q44 0 72.5 38.5t28.5 96.5zM717 170q0 59 -30 98t-73 39q-44 0 -72.5 -38.5t-28.5 -96.5q0 -59 30 -98t73 -39q44 0 72.5 38.5t28.5 96.5z" />
    <glyph glyph-name="guilsinglleft" unicode="&#x2039;" horiz-adv-x="311" 
d="M211 468l37 -24l-137 -188l137 -190l-37 -24l-160 209v8z" />
    <glyph glyph-name="guilsinglright" unicode="&#x203a;" horiz-adv-x="311" 
d="M100 42l-37 24l137 188l-137 190l37 24l160 -209v-8z" />
    <glyph glyph-name="fraction" unicode="&#x2044;" horiz-adv-x="410" 
d="M401 758h54l-468 -856h-54z" />
    <glyph glyph-name="trademark" unicode="&#x2122;" horiz-adv-x="690" 
d="M611 638l-119 -178h-5l-119 178v-246h-35v308h37l120 -183l120 183h36v-308h-35v246zM162 666v-274h-35v274h-101v34h237v-34h-101z" />
    <glyph glyph-name="radical" unicode="&#x221a;" horiz-adv-x="973" 
d="M534 510h178v-45h-178v-465h-49v465h-74v45h74v50q0 82 40 127.5t112 45.5q41 0 76 -12v-46q-42 13 -76 13q-103 0 -103 -129v-49zM172 510h178v-45h-178v-465h-49v465h-74v45h74v50q0 82 40 127.5t112 45.5q41 0 76 -12v-46q-42 13 -76 13q-103 0 -103 -129v-49zM873 0
h-49v730h49v-730z" />
    <glyph glyph-name="approxequal" unicode="&#x2248;" horiz-adv-x="973" 
d="M879 643h-61v67h61v-67zM534 510h178v-45h-178v-465h-49v465h-74v45h74v50q0 82 40 127.5t112 45.5q41 0 76 -12v-46q-42 13 -76 13q-103 0 -103 -129v-49zM172 510h178v-45h-178v-465h-49v465h-74v45h74v50q0 82 40 127.5t112 45.5q41 0 76 -12v-46q-42 13 -76 13
q-103 0 -103 -129v-49zM873 0h-49v510h49v-510z" />
    <glyph glyph-name="apple" unicode="&#xf8ff;" horiz-adv-x="967" 
d="M868 0h-767v750h767v-750zM859 -104h-6l-3 20l-10 -21h-2l-10 21l-3 -20h-6l6 34h1l13 -26l13 26h1zM806 -87q0 -18 -17 -18q-7 0 -12 5t-5 12q0 18 18 18q7 0 11.5 -5t4.5 -12zM758 -96l-1 -6q-3 -3 -10 -3q-18 0 -18 17q0 8 5.5 13t12.5 5t11 -3l-2 -5q-3 3 -9 3
q-12 0 -12 -12q0 -13 13 -13q4 0 10 4zM702 -71l-13 -19v-14h-6v14l-14 19l6 1l11 -15l9 14h7zM656 -104h-6v15h-16v-15h-6v33h6v-13h16v13h6v-33zM612 -82q0 -12 -17 -12v-10h-6v33q23 3 23 -11zM576 -104h-6l-4 8h-14l-3 -8h-6l15 34h2zM534 -104h-7l-8 11h-5v-11h-6v33
q23 3 23 -10q0 -7 -7 -10zM491 -101q-6 -4 -13 -4q-18 0 -18 17q0 8 5.5 13t13.5 5q6 0 12 -4l-2 -5q-4 4 -11 4q-12 0 -12 -13q0 -12 13 -12q2 0 6 2v7h-9v5h15v-15zM447 -87q0 -18 -17 -18q-7 0 -12 5t-5 12q0 18 18 18q7 0 11.5 -5t4.5 -12zM400 -82q0 -12 -17 -12v-10
h-6v33q23 3 23 -11zM364 -71l-13 -19v-14h-6v14l-14 19l6 1l11 -15l9 14h7zM323 -71v-5h-12v-28h-6v28h-12v5h30zM267 -71l-12 -34h-1l-11 23l-10 -23h-1l-12 34l6 1l7 -23l10 23h1l10 -23l7 22h6zM211 -71l-12 -34h-1l-11 23l-10 -23h-1l-12 34l6 1l7 -23l10 23h1l10 -23
l7 22h6zM155 -71l-12 -34h-1l-11 23l-10 -23h-1l-12 34l6 1l7 -23l10 23h1l10 -23l7 22h6zM716 -101q0 -4 -4 -4t-4 4t4 4t4 -4zM284 -101q0 -4 -4 -4t-4 4t4 4t4 -4zM559 686q0 8 -1 12q-2 -1 -17 -1t-18 1l-1 -12h2q4 9 10 9q3 0 3 -3v-23q-1 -5 -5 -5v-2h17v2l-4 2
q-1 1 -1 3v23q0 3 3 3t5.5 -2.5t3.5 -4.5l1 -2h2zM504 662v2q-6 -1 -6 5v21l6 5v2h-18v-1v-1l4 -2q1 -1 1 -3v-9h-17v9q1 5 5 5v1v1h-17v-2l4 -2q1 -1 1 -3v-21l-5 -5v-2h17v2q-5 0 -5 5v10h17v-10q-1 -5 -5 -5v-2h18zM439 664l-4 2q-1 1 -1 3v21q1 5 5 5v2h-29l-2 -10l2 -1
q3 8 9 8h4q4 0 4 -3v-10h-4l-6 5h-2v-13h2q0 6 6 6h4v-11q0 -3 -4 -3h-4q-3 0 -5.5 2.5t-3.5 4.5l-1 2l-2 -1l2 -11h30v2zM827 618v6h-685v-6h685zM696 540q0 15 -11.5 26.5t-25.5 11.5q-8 0 -15.5 -5.5t-7.5 -16.5q0 -16 11 -27t26 -11q8 0 15.5 5.5t7.5 16.5zM589 537
q0 12 -14 17q5 3 5 9q0 15 -21 15q-13 0 -13 -11q0 -6 5 -6q4 0 4 3q0 2 -1.5 3.5t-1.5 2.5q0 5 7 5q10 0 10 -12q0 -4 -2 -6q-16 2 -16 -6q0 -6 8 -6q6 0 11 5q6 -4 6 -15q0 -14 -12 -14t-12 9q0 3 3 3l1 -1q2 -1 4 -1q4 0 4 5t-7 5q-9 0 -9 -10q0 -13 16 -13q25 0 25 19z
M295 537q0 12 -14 17q5 3 5 9q0 15 -21 15q-13 0 -13 -11q0 -6 5 -6q4 0 4 3q0 2 -1.5 3.5t-1.5 2.5q0 5 7 5q10 0 10 -12q0 -4 -2 -6q-16 2 -16 -6q0 -6 8 -6q6 0 11 5q6 -4 6 -15q0 -14 -12 -14t-12 9q0 3 3 3l1 -1q2 -1 4 -1q4 0 4 5t-7 5q-9 0 -9 -10q0 -13 16 -13
q25 0 25 19zM820 522q-8 -1 -10 8l-7 35q-1 4 1 6t4 2h2l-1 3h-28l1 -3q7 1 9 -8l3 -15h-24l-3 15q-1 4 1 6t4 2h2l-1 3h-29l1 -3q8 1 10 -8l7 -35q1 -4 -1 -6t-4 -2h-2l1 -3h29l-1 3q-8 -1 -10 8l-3 16h24l3 -16q1 -4 -1 -6t-4 -2h-2l1 -3h29zM498 519l-1 3q-8 -1 -10 8
l-7 35q-1 4 1 6t4 2h2l-1 3h-45v-17h4q-1 13 13 13h4q5 0 6 -6l3 -16h-4q-4 0 -7 2t-4 4l-1 3h-3l5 -23h3q-1 11 8 11h4l3 -17q1 -4 -1 -6t-4 -2h-2l1 -3h29zM202 522q-8 -1 -10 8l-7 35q-1 4 1 6t4 2h2l-1 3h-27q-20 0 -20 -15q0 -13 19 -15l-9 -16q-2 -4 -5.5 -6t-6.5 -2
h-2l1 -3h19l12 23q2 3 5 3l3 -15q1 -4 -1 -6t-4 -2h-2l1 -3h29zM400 521q0 8 -13 9q-4 2 -5 14.5t-5.5 23t-18.5 10.5q-5 0 -9 -3.5t-4 -6.5q0 -5 5 -5q4 0 4 6t5 6t7 -8t4.5 -19.5t9.5 -17.5q-8 0 -14 -6.5t-9 -6.5q-5 0 -5 4q0 2 1 3t1 2q0 5 -5 5t-5 -7q0 -4 5 -8t10 -4
q10 0 15 6.5t10 6.5q4 -7 12 -7q4 0 4 3zM827 475v6h-685v-6h685zM827 378v62h-147v-62h36v28h11v-65h-14v-33h81v33h-14v65h11v-28h36zM648 406v34h-81v-34h11l-15 -23l-15 23h10v34h-62v-34h12l37 -46v-19h-14v-33h81v33h-15v20l37 45h14zM458 308v33h-14v65h14v34h-96
q-21 0 -34 -11.5t-13 -28.5q0 -18 13 -29t34 -11h30v-19h-15v-33h81zM283 308v33h-14v65h14v34h-141v-62h41v28h33v-20h-24v-24h24v-21h-33v28h-41v-61h141zM827 271v6h-685v-6h685zM728 192q0 15 -11.5 26.5t-25.5 11.5q-8 0 -15.5 -5.5t-7.5 -16.5q0 -16 11 -27t26 -11
q8 0 15.5 5.5t7.5 16.5zM203 217q-7 13 -18 13q-15 0 -14 -23q-7 23 -21 23q-12 0 -12 -12l3 -1q0 6 8 6q16 0 24 -33q2 -8 0.5 -11.5t-3.5 -3.5h-3l1 -4h28l-1 4q-7 -2 -10 9q-5 17 -5 25q0 13 9 13q5 0 12 -7zM823 171l-1 3q-8 -1 -10 8l-7 35q-1 4 1 6t4 2h2l-1 3h-45
v-17h4q-1 13 13 13h4q5 0 6 -6l3 -16h-4q-4 0 -7 2t-4 4l-1 3h-3l5 -23h3q-1 11 8 11h4l3 -17q1 -4 -1 -6t-4 -2h-2l1 -3h29zM621 225l-1 3h-29l1 -3q8 1 10 -9l5 -21q5 -20 -11 -20q-14 0 -20 22l-4 19q-1 5 1 7t4 2h2v3h-24l1 -3q9 1 11 -9l4 -19q5 -27 28 -27q24 0 19 24
l-5 22q-1 5 1 7t4 2h3zM522 174q-6 0 -9 10l-7 32q-1 4 1 6.5t5 2.5h2l-1 3h-14l-29 -42l-5 30q-1 4 1 6t4 2l2 1l-1 3h-21l1 -3q7 0 9 -9l8 -45l3 -1l30 44l6 -30q1 -5 -0.5 -7.5t-3.5 -2.5h-2l1 -3h21zM414 171l-1 4q-7 -2 -10 9l-8 31q-3 9 8 10l-1 3h-30q-25 0 -25 -22
q0 -15 11 -25t24 -10h32zM306 174q-8 -1 -10 8l-7 35q-1 4 1 6t4 2h2l-1 3h-27q-20 0 -20 -15q0 -13 19 -15l-9 -16q-2 -4 -5.5 -6t-6.5 -2h-2l1 -3h19l12 23q2 3 5 3l3 -15q1 -4 -1 -6t-4 -2h-2l1 -3h29zM827 127v6h-685v-6h685zM694 46v2q-6 1 -6 5v20l6 6v2h-10l-24 -26
v18q0 2 1.5 3.5t2.5 1.5l2 1v2h-15v-2q6 -1 6 -6v-28h3l25 28v-20l-5 -5v-2h14zM633 48l-4 2q-1 1 -1 3v21q1 5 5 5v2h-29l-2 -10l2 -1q3 8 9 8h4q4 0 4 -3v-10h-4l-6 5h-2v-13h2q0 6 6 6h4v-11q0 -3 -4 -3h-4q-3 0 -5.5 2.5t-3.5 4.5l-1 2l-2 -1l2 -11h30v2zM583 81h-15v-2
l2 -5l-9 -19l-5 10l4 8l6 6v2h-26l1 -2q3 0 7 -6l3 -5l-7 -13l-8 18l2 6v2h-13v-2q4 -1 6 -6l13 -27h1q1 -1 1 0l8 16l9 -16h1l12 27q1 3 3 4.5t3 1.5h1v2zM480 79v2h-15v-2l1 -5l-6 -9l-6 9l3 5v2h-15v-2q5 0 8 -5l8 -12v-8l-5 -6v-2h17v2q-5 0 -5 6v8l8 12zM425 64
q0 18 -20 18t-20 -18q0 -19 20 -19t20 19zM364 46v2q-5 0 -5 5v20l5 6v2h-18q-13 0 -13 -9q0 -5 9 -9l-7 -10l-8 -5v-2h11l7 12q3 4 7 4v-9l-5 -5v-2h17zM309 46v2q-6 1 -6 6v20l6 5v2h-18v-2q6 0 6 -5v-9q-2 0 -4 2l-8 8l1 4v2h-14v-2q5 -1 8 -4l10 -9l-13 -13l-7 -5v-2h17
v2l-2 5l8 8q2 2 4 2v-9q0 -3 -1.5 -4.5t-3.5 -1.5h-1v-2h18zM606 -83q0 8 -11 7v-13q11 0 11 6zM525 -82q0 8 -11 6v-12q11 -1 11 6zM394 -83q0 8 -11 7v-13q11 0 11 6zM564 -92l-5 12l-5 -12h10zM800 -88q0 13 -11 13t-11 -12q0 -13 11 -13t11 12zM441 -88q0 13 -11 13
t-11 -12q0 -13 11 -13t11 12zM176 548h-5q-15 0 -15 15q0 9 8 9t9 -5zM566 553q-3 -4 -7 -4t-4 2q0 3 4 3q5 0 7 -1zM272 553q-3 -4 -7 -4t-4 2q0 3 4 3q5 0 7 -1zM684 535q0 -13 -11 -13q-9 0 -17 11.5t-8 26.5q0 14 11 14q9 0 17 -12t8 -27zM392 384h-11q-13 0 -13 11
t13 11h11v-22zM280 200h-5q-15 0 -15 15q0 9 8 9t9 -5zM716 187q0 -13 -11 -13q-9 0 -17 11.5t-8 26.5q0 14 11 14q9 0 17 -12t8 -27zM393 182q0 -7 -4 -7h-5q-11 0 -18.5 10t-7.5 22q0 17 14 17h6q4 -1 6 -7zM553 79q5 0 0 -9q-5 9 0 9zM352 64h-3q-8 0 -8 8q0 6 7 6
q4 0 4 -4v-10zM417 64q0 -17 -12 -17t-12 17q0 16 12 16t12 -16z" />
    <glyph glyph-name="fi" unicode="&#xfb01;" horiz-adv-x="611" 
d="M517 643h-61v67h61v-67zM172 510h178v-45h-178v-465h-49v465h-74v45h74v50q0 82 40 127.5t112 45.5q41 0 76 -12v-46q-42 13 -76 13q-103 0 -103 -129v-49zM511 0h-49v510h49v-510z" />
    <glyph glyph-name="fl" unicode="&#xfb02;" horiz-adv-x="611" 
d="M172 510h178v-45h-178v-465h-49v465h-74v45h74v50q0 82 40 127.5t112 45.5q41 0 76 -12v-46q-42 13 -76 13q-103 0 -103 -129v-49zM511 0h-49v730h49v-730z" />
    <glyph glyph-name="NUL" horiz-adv-x="0" 
 />
    </font>
</defs>
</svg>
